,,


2

Stella Live Concert 2015 BluRay ISO

@ 2016:12:17 10:54

张清芳 : 芳华盛宴演唱会 【台版原盘 繁体中字】

Stella Live Concert 2015 TW Blu-Ray 1080i AVC DTS-HD MA 5.1

来仅此一夜的绝美绽放
这一场芳华盛宴是张清芳与你的记忆盛宴
幕已落下,今晚,你想起哪一段时光?

从「激情过后」的初相识,「我还年轻」的不定心情,「加州阳光」中更趋坚强的少女,一直到「出嫁」的幸福小女人,「无人熟识」的兀自激昂……漫漫的30年时光,我们随着张清芳的脚步,一起成长,跌跌撞撞到如今。或许幸福了,或许,我们仍在不断追寻。

当记忆的唱盘被唱针读取,幽幽地播放出一首首略带杂讯的歌曲,无论在什么地方,属于自己的那些无可替代的岁月,都将无法抹灭,且更趋鲜明,仿如一场记忆的盛宴,而我们都是盛宴里的唯一主角,所有剧情在耳边翻飞,如此靠近,好像伸手就能触摸到那段炽热时光的温度。

这一生,我们能拥有几次30年?张清芳继造成轰动,场场爆满的出道25周年演唱会「你喜欢我的歌吗」之后,时隔5年,再一次踏上大舞台举办「芳华盛宴」演唱会。30年美好的累积,张清芳带给大家的,不只是经典好歌的重温,更是一场好久不见的音乐派对,担任女主人的她,邀请一起共同渡过这些美好时光的朋友们一同参与,用最清亮的歌声与笑声重温过往的所有故事,打造一个属于记忆的盛宴,而这场盛宴的主角,就是现场的每一个人。在这一晚,每一个喜爱张清芳的你,都是芳华盛宴的VIP!

闭上眼,最美好的那一段时光,是什么歌在陪伴着你?当时在你身边的那个人,现在还好吗?缓缓睁开眼,才发现时光如酒,美好的岁月依旧盛开,原来当下,就是最美好的时光。如果有一首歌能将岁月的美好尽释,那一定就是张清芳。那个羞涩婉约的玫瑰色青春,百花齐放的美好年代,全部都在张清芳的「芳华盛宴」演唱会中重现。幕虽已落下,但今晚,我们已准备好一份赴约的心情,仅此一夜的绝美绽放,即将重现在您眼前。

收录曲目 :
01. 你喜欢我的歌吗
02. 串起每一刻
03. 无人熟识
04. 天天年轻
05. 加州阳光
06. Men’s talk
07. 激情过后
08. 经典组曲:昨日梦已远+ 走时请关窗+ 错不在你+ 旧爱难了
09. 出嫁
10. 我还年轻
11. 民歌组曲:偶然+ 风告诉我+ 捉泥鳅+ 小木船+ 月琴
12. 90 组曲:情难枕+ 我是不是你最疼爱的人+ 问+猜心+ 最浪漫的事
13. 花雨夜
14. 纯粹
15. 为爱落泪
16. 女人缘
17. 不想你也难
18. 燃烧一瞬间
19. 认真的眼睛
20. 大雨的夜里
Bonus track 盛宴之后- 张清芳的每一面幕后密访

DISC INFO:

Disc Title: STELLA_LIVE_BD
Disc Size: 47,111,141,376 bytes
Protection: AACS(v56)
BD-Java: No
BDInfo: 0.5.8.1

PLAYLIST REPORT:

Name: 00000.MPLS
Length: 2:29:16.814 (h:m:s.ms)
Size: 46,190,868,480 bytes
Total Bitrate: 41.26 Mbps

VIDEO:

Codec Bitrate Description
—– ——- ———–
MPEG-4 AVC Video 27471 kbps 1080i / 29.970 fps / 16:9 / High Profile 4.1

AUDIO:

Codec Language Bitrate Description
—– ——– ——- ———–
LPCM Audio Chinese 4608 kbps 2.0 / 96 kHz / 4608 kbps / 24-bit
Dolby Digital Audio Chinese 640 kbps 5.1 / 48 kHz / 640 kbps
DTS-HD Master Audio Chinese 6327 kbps 5.1 / 96 kHz / 6327 kbps / 24-bit (DTS Core: 5.1 / 48 kHz / 1509 kbps / 24-bit)

SUBTITLES:

Codec Language Bitrate Description
—– ——– ——- ———–
Presentation Graphics Chinese 18.713 kbps

FILES:

Name Time In Length Size Total Bitrate
—- ——- —— —- ————-
00000.M2TS 0:00:00.000 1:58:17.090 36,655,319,040 41,318 kbps
00001.M2TS 1:58:17.090 0:30:59.123 9,534,345,216 41,027 kbps
00013.M2TS 2:29:16.213 0:00:00.600 1,204,224 16,040 kbps

Download links
  • Andy

    Datafile no part01~06?

    • asiautaf

      check now….

Post navigation